<?xml version="1.0" standalone="no"?>
<!DOCTYPE svg PUBLIC "-//W3C//DTD SVG 1.1//EN" "http://www.w3.org/Graphics/SVG/1.1/DTD/svg11.dtd" >
<svg xmlns="http://www.w3.org/2000/svg">
<metadata></metadata>
<defs>
<font id="proxima_nova_ththin" horiz-adv-x="208" >
<font-face units-per-em="1000" ascent="790" descent="-210" />
<missing-glyph horiz-adv-x="260" />
<glyph unicode="&#xfb01;" horiz-adv-x="448" d="M20 456v27h80v51q0 67 32 105t89 38q35 0 57 -13l-13 -26q-21 12 -44 12q-91 0 -91 -116v-51h98v-27h-98v-456h-30v456h-80zM318 595q0 12 9 20.5t20 8.5q12 0 20.5 -8.5t8.5 -20.5t-8.5 -20.5t-20.5 -8.5q-11 0 -20 8.5t-9 20.5zM332 0v483h30v-483h-30z" />
<glyph unicode="&#xfb02;" horiz-adv-x="448" d="M20 456v27h80v51q0 67 32 105t89 38q35 0 57 -13l-13 -26q-21 12 -44 12q-91 0 -91 -116v-51h98v-27h-98v-456h-30v456h-80zM332 0v667h30v-667h-30z" />
<glyph unicode="&#xfb03;" horiz-adv-x="694" d="M20 456v27h80v51q0 67 32 105t89 38q45 0 82 -30l-18 -24q-29 27 -64 27q-91 0 -91 -116v-51h98v-27h-98v-456h-30v456h-80zM266 456v27h80v51q0 67 32 105t89 38q35 0 57 -13l-13 -26q-21 12 -44 12q-91 0 -91 -116v-51h98v-27h-98v-456h-30v456h-80zM564 595 q0 12 9 20.5t20 8.5q12 0 20.5 -8.5t8.5 -20.5t-8.5 -20.5t-20.5 -8.5q-11 0 -20 8.5t-9 20.5zM578 0v483h30v-483h-30z" />
<glyph unicode="&#xfb04;" horiz-adv-x="694" d="M20 456v27h80v51q0 67 32 105t89 38q45 0 82 -30l-18 -24q-29 27 -64 27q-91 0 -91 -116v-51h98v-27h-98v-456h-30v456h-80zM266 456v27h80v51q0 67 32 105t89 38q35 0 57 -13l-13 -26q-21 12 -44 12q-91 0 -91 -116v-51h98v-27h-98v-456h-30v456h-80zM578 0v667h30v-667 h-30z" />
<glyph horiz-adv-x="0" />
<glyph horiz-adv-x="0" />
<glyph horiz-adv-x="333" />
<glyph unicode="&#xd;" horiz-adv-x="0" />
<glyph unicode=" "  horiz-adv-x="260" />
<glyph unicode="&#x09;" horiz-adv-x="260" />
<glyph unicode="&#xa0;" horiz-adv-x="260" />
<glyph unicode="!" d="M71 24q0 13 10 22.5t23 9.5t23 -9.5t10 -22.5q0 -14 -9.5 -23.5t-23.5 -9.5t-23.5 9.5t-9.5 23.5zM83 667h42l-11 -506h-20z" />
<glyph unicode="&#x22;" horiz-adv-x="290" d="M62 651q0 11 7.5 18.5t18.5 7.5t18.5 -7.5t7.5 -18.5l-15 -208h-22q-15 197 -15 208zM176 651q0 11 7.5 18.5t18.5 7.5t18.5 -7.5t7.5 -18.5l-15 -208h-22q-15 197 -15 208z" />
<glyph unicode="#" horiz-adv-x="567" d="M26 191l9 29h116l76 227h-117l8 29h119l63 191h33l-63 -191h124l63 191h33l-64 -191h115l-7 -29h-117l-77 -227h120l-9 -29h-120l-64 -191h-33l65 191h-125l-64 -191h-33l64 191h-115zM184 220h123l77 227h-124z" />
<glyph unicode="$" horiz-adv-x="575" d="M53 94l26 23q76 -94 196 -99v318q-39 11 -61 18t-52.5 21.5t-47 31t-28.5 42.5t-12 59q0 76 58.5 122t142.5 48v90h32v-91q122 -7 192 -93l-25 -23q-61 78 -167 86v-285q38 -11 62 -19.5t54.5 -25t48 -35t30 -48t12.5 -65.5q0 -30 -10 -58t-32 -55.5t-64.5 -45.5 t-100.5 -21v-89h-32v88q-71 2 -128.5 31t-93.5 75zM109 508q0 -30 12.5 -52.5t39 -38.5t50.5 -25t64 -21v277q-71 -2 -118.5 -41.5t-47.5 -98.5zM307 18q48 3 83.5 18t54 38t26.5 46.5t8 48.5q0 29 -10 52t-24.5 38.5t-39 29t-45.5 21t-53 17.5v-309z" />
<glyph unicode="%" horiz-adv-x="709" d="M36 513q0 71 43 117.5t110 46.5t110 -46.5t43 -117.5q0 -70 -43 -116t-110 -46t-110 46t-43 116zM69 513q0 -55 34 -95t86 -40q53 0 86.5 39.5t33.5 95.5q0 57 -33.5 97t-86.5 40q-52 0 -86 -40t-34 -97zM127 0l426 667h37l-427 -667h-36zM367 150q0 71 43 117.5 t110 46.5t110 -46.5t43 -117.5q0 -70 -43 -116t-110 -46t-110 46t-43 116zM400 150q0 -56 33.5 -95.5t86.5 -39.5t86.5 39.5t33.5 95.5q0 57 -33.5 97t-86.5 40t-86.5 -40t-33.5 -97z" />
<glyph unicode="&#x26;" horiz-adv-x="637" d="M47 167q0 73 40 119t111 86q-58 90 -58 155t43.5 107.5t105.5 42.5q60 0 95 -32t35 -90q0 -34 -13 -61.5t-39.5 -50.5t-49.5 -38t-62 -36q-7 -4 -11 -6q37 -53 94 -115q52 -58 100 -106q44 67 79 171l32 -12q-50 -131 -86 -184q63 -61 128 -117h-53q-34 29 -96 89 q-80 -101 -199 -101q-84 0 -140 47t-56 132zM82 167q0 -71 47 -110t114 -39q98 0 174 96q-79 81 -105 112q-57 65 -97 120q-63 -36 -98 -77t-35 -102zM175 527q0 -58 52 -138q33 18 48 26.5t40.5 26t37 32t21.5 36t10 45.5q0 44 -26.5 68t-68.5 24q-47 0 -80.5 -34 t-33.5 -86z" />
<glyph unicode="'" horiz-adv-x="176" d="M62 651q0 11 7.5 18.5t18.5 7.5t18.5 -7.5t7.5 -18.5l-15 -208h-22q-15 197 -15 208z" />
<glyph unicode="(" horiz-adv-x="206" d="M47 243q0 236 126 442l16 -11q-54 -114 -80.5 -210t-26.5 -221q0 -124 26.5 -221t80.5 -209l-16 -12q-126 206 -126 442z" />
<glyph unicode=")" horiz-adv-x="206" d="M17 -187q54 112 80.5 209t26.5 221q0 125 -26.5 221t-80.5 210l16 11q126 -206 126 -442t-126 -442z" />
<glyph unicode="*" horiz-adv-x="330" d="M41 489l106 54l-106 54l15 26l100 -65l-6 119h30l-6 -119l100 65l15 -26l-106 -54l106 -54l-15 -26l-100 65l6 -119h-30l6 119l-100 -65z" />
<glyph unicode="+" horiz-adv-x="494" d="M29 322v30h202v216h32v-216h202v-30h-202v-222h-32v222h-202z" />
<glyph unicode="," d="M58 -100q24 18 38.5 43.5t14.5 48.5q-6 -1 -8 -1q-14 0 -23 9.5t-9 23.5q0 13 9 22.5t23 9.5q16 0 27.5 -14t11.5 -39q0 -36 -18 -69.5t-44 -51.5z" />
<glyph unicode="-" horiz-adv-x="300" d="M30 227v30h240v-30h-240z" />
<glyph unicode="." d="M71 24q0 13 10 22.5t23 9.5t23 -9.5t10 -22.5q0 -14 -9.5 -23.5t-23.5 -9.5t-23.5 9.5t-9.5 23.5z" />
<glyph unicode="/" horiz-adv-x="268" d="M0 -20l237 707h31l-237 -707h-31z" />
<glyph unicode="0" horiz-adv-x="605" d="M65 333q0 62 13 120t39.5 109.5t74.5 83t111 31.5t110.5 -31.5t74 -83t39.5 -109.5t13 -120q0 -61 -13 -119.5t-39.5 -110.5t-74 -83.5t-110.5 -31.5t-111 31.5t-74.5 83.5t-39.5 110.5t-13 119.5zM100 333q0 -57 10.5 -109.5t33 -100.5t63.5 -76.5t96 -28.5t96 29 t63 76.5t32.5 100t10.5 109.5t-10.5 109.5t-32.5 100t-63 76t-96 28.5t-96 -28.5t-63.5 -76t-33 -100t-10.5 -109.5z" />
<glyph unicode="1" horiz-adv-x="277" d="M30 529l129 138h30v-667h-32v621l-105 -115z" />
<glyph unicode="2" horiz-adv-x="577" d="M59 0v28q80 66 124 104.5t102.5 94.5t88 95t51 85.5t21.5 88.5q0 75 -49.5 113t-116.5 38q-62 0 -110 -24.5t-74 -65.5l-26 19q31 47 86.5 74t124.5 27q75 0 136 -45.5t61 -135.5q0 -33 -11.5 -67.5t-26.5 -63.5t-47 -67t-56.5 -63.5t-71.5 -68t-75 -66l-84 -70.5h374 v-30h-421z" />
<glyph unicode="3" horiz-adv-x="531" d="M36 100l28 16q61 -98 188 -98q83 0 132 42.5t49 116.5q0 77 -55 115t-138 38q-46 0 -56 -1v32q10 -1 56 -1q77 0 130 36t53 107q0 66 -49.5 105t-121.5 39q-58 0 -100.5 -22t-81.5 -68l-25 20q79 100 207 100q83 0 143 -46.5t60 -127.5q0 -72 -45 -110.5t-97 -47.5 q31 -3 64 -19.5t60.5 -56t27.5 -92.5q0 -83 -56.5 -136t-156.5 -53q-75 0 -131.5 32t-84.5 80z" />
<glyph unicode="4" horiz-adv-x="524" d="M38 195v33l305 439h42v-442h101v-30h-101v-195h-32v195h-315zM73 225h280v406z" />
<glyph unicode="5" horiz-adv-x="574" d="M81 100l26 19q67 -101 190 -101q77 0 128.5 51.5t51.5 128.5q0 83 -51 132.5t-129 49.5q-95 0 -168 -69l-27 16v340h364v-30h-332v-291q66 64 163 64q89 0 150.5 -56t61.5 -156q0 -94 -62.5 -152t-149.5 -58q-145 0 -216 112z" />
<glyph unicode="6" horiz-adv-x="577" d="M65 333q0 65 12.5 123t39 109t74.5 81.5t112 30.5q112 0 175 -90l-24 -21q-56 81 -151 81q-56 0 -98 -28.5t-64.5 -77t-33 -103t-10.5 -115.5q0 -24 1 -36q25 42 81.5 80.5t121.5 38.5q94 0 152.5 -53.5t58.5 -156.5q0 -83 -58 -145.5t-157 -62.5q-62 0 -108.5 28.5 t-72.5 78.5t-38.5 109.5t-12.5 128.5zM102 246q4 -40 16 -78t34 -73t59.5 -56t85.5 -21q87 0 135 55.5t48 122.5q0 88 -49 134t-131 46q-59 0 -113 -36.5t-85 -93.5z" />
<glyph unicode="7" horiz-adv-x="489" d="M36 637v30h417v-22l-295 -645h-36l293 637h-379z" />
<glyph unicode="8" horiz-adv-x="561" d="M66 165q0 68 50.5 114.5t122.5 64.5q-68 16 -115 57.5t-47 104.5q0 82 61 126.5t143 44.5q81 0 142.5 -45t61.5 -126q0 -63 -47 -104.5t-115 -57.5q72 -18 122 -64.5t50 -114.5q0 -77 -60.5 -127t-153.5 -50q-95 0 -155 49.5t-60 127.5zM98 165q0 -66 54 -106.5 t129 -40.5q74 0 128 40.5t54 106.5q0 40 -22 73t-54.5 51.5t-59.5 28.5t-46 12q-19 -2 -46.5 -12t-60 -28.5t-54.5 -51.5t-22 -73zM109 506q0 -37 20 -66t52.5 -45.5t54.5 -23.5t45 -12q23 4 45.5 12t54.5 24t52 45t20 66q0 65 -49.5 103t-122.5 38t-122.5 -38t-49.5 -103z " />
<glyph unicode="9" horiz-adv-x="577" d="M65 470q0 83 58 145.5t157 62.5q62 0 108.5 -28.5t72.5 -78.5t38.5 -109.5t12.5 -128.5q0 -65 -12.5 -123t-39 -109t-74.5 -81.5t-112 -30.5q-112 0 -175 90l24 21q56 -81 151 -81q56 0 98 28.5t64.5 77t33 103t10.5 115.5q0 24 -1 36q-25 -42 -81.5 -80.5t-121.5 -38.5 q-94 0 -152.5 53.5t-58.5 156.5zM97 470q0 -88 49 -134t131 -46q59 0 113 36.5t85 93.5q-4 40 -16 78t-34 73t-59.5 56t-85.5 21q-87 0 -135 -55.5t-48 -122.5z" />
<glyph unicode=":" d="M71 24q0 13 10 22.5t23 9.5t23 -9.5t10 -22.5q0 -14 -9.5 -23.5t-23.5 -9.5t-23.5 9.5t-9.5 23.5zM71 457q0 13 9.5 23t23.5 10t23.5 -10t9.5 -23t-10 -22.5t-23 -9.5t-23 9.5t-10 22.5z" />
<glyph unicode=";" d="M58 -100q24 18 38.5 43.5t14.5 48.5q-6 -1 -8 -1q-14 0 -23 9.5t-9 23.5q0 13 9 22.5t23 9.5q16 0 27.5 -14t11.5 -39q0 -36 -18 -69.5t-44 -51.5zM71 457q0 13 9.5 23t23.5 10t23.5 -10t9.5 -23t-10 -22.5t-23 -9.5t-23 9.5t-10 22.5z" />
<glyph unicode="&#x3c;" horiz-adv-x="494" d="M29 324v21l436 235v-36l-395 -210l395 -208v-36z" />
<glyph unicode="=" horiz-adv-x="494" d="M29 220v30h436v-30h-436zM29 418v30h436v-30h-436z" />
<glyph unicode="&#x3e;" horiz-adv-x="494" d="M29 90v36l395 208l-395 210v36l436 -235v-21z" />
<glyph unicode="?" horiz-adv-x="467" d="M26 570q75 107 214 107q85 0 135.5 -44.5t50.5 -108.5q0 -36 -16 -66.5t-40 -50t-51.5 -39.5t-51.5 -36.5t-40 -39t-16 -48.5q0 -30 33 -53l-19 -23q-44 33 -44 76q0 37 21.5 67t52.5 50.5t62 42t52.5 52t21.5 68.5q0 52 -40 87.5t-111 35.5q-68 0 -112.5 -25t-78.5 -73z M189 24q0 13 10 22.5t23 9.5t23 -9.5t10 -22.5q0 -14 -9.5 -23.5t-23.5 -9.5t-23.5 9.5t-9.5 23.5z" />
<glyph unicode="@" horiz-adv-x="783" d="M35 244q0 106 55.5 197.5t147 144t194.5 52.5q138 0 226.5 -94t88.5 -233q0 -105 -43.5 -165.5t-107.5 -60.5q-38 0 -62 26t-24 62v6q-28 -40 -74 -67t-97 -27q-68 0 -110 43t-42 115q0 106 75 181.5t168 75.5q49 0 82.5 -24.5t48.5 -62.5l14 69h30l-62 -294 q-1 -6 -1 -18q0 -26 15.5 -42t38.5 -16q17 0 36 9.5t39.5 30.5t33.5 62.5t13 97.5q0 127 -81 211.5t-208 84.5q-146 0 -255 -110.5t-109 -252.5q0 -122 82.5 -204t208.5 -82q97 0 188 57l16 -23q-98 -63 -208 -63q-136 0 -226.5 90.5t-90.5 223.5zM220 243q0 -58 31.5 -94.5 t87.5 -36.5t102.5 32.5t77.5 78.5l34 157q-11 36 -42.5 64.5t-80.5 28.5q-85 0 -147.5 -70.5t-62.5 -159.5z" />
<glyph unicode="A" horiz-adv-x="636" d="M21 0l278 667h38l278 -667h-37l-74 179h-372l-74 -179h-37zM144 209h348l-174 421z" />
<glyph unicode="B" horiz-adv-x="600" d="M88 0v667h251q82 0 132 -44.5t50 -125.5q0 -60 -35 -101.5t-83 -51.5q53 -8 92 -57t39 -107q0 -85 -51.5 -132.5t-139.5 -47.5h-255zM120 30h223q73 0 114.5 40t41.5 109q0 61 -41 105t-115 44h-223v-298zM120 358h219q71 0 109 39t38 100q0 60 -38.5 100t-108.5 40h-219 v-279z" />
<glyph unicode="C" horiz-adv-x="667" d="M65 333q0 151 96 248t237 97t232 -105l-25 -22q-36 45 -90.5 71t-116.5 26q-127 0 -212.5 -88t-85.5 -227q0 -138 85.5 -226.5t212.5 -88.5q62 0 116.5 26t90.5 71l26 -21q-94 -106 -233 -106q-141 0 -237 97t-96 248z" />
<glyph unicode="D" horiz-adv-x="684" d="M88 0v667h198q150 0 241 -97.5t91 -236.5q0 -140 -90.5 -236.5t-241.5 -96.5h-198zM120 30h166q138 0 217.5 86t79.5 217q0 130 -80 217t-217 87h-166v-607z" />
<glyph unicode="E" horiz-adv-x="558" d="M88 0v667h408v-30h-376v-279h369v-30h-369v-298h376v-30h-408z" />
<glyph unicode="F" horiz-adv-x="533" d="M88 0v667h408v-30h-376v-279h369v-30h-369v-328h-32z" />
<glyph unicode="G" horiz-adv-x="708" d="M65 333q0 151 96 248t237 97q144 0 244 -103l-21 -22q-39 45 -98 70t-125 25q-127 0 -212.5 -88t-85.5 -227q0 -138 85.5 -227t212.5 -89q67 0 122 26.5t90 63.5v183h-275v30h307v-226q-44 -49 -107.5 -78t-136.5 -29q-141 0 -237 97t-96 249z" />
<glyph unicode="H" horiz-adv-x="695" d="M88 0v667h32v-309h455v309h32v-667h-32v328h-455v-328h-32z" />
<glyph unicode="I" d="M88 0v667h32v-667h-32z" />
<glyph unicode="J" horiz-adv-x="465" d="M16 75l27 24q57 -81 142 -81q73 0 116.5 46.5t43.5 120.5v482h32v-482q0 -95 -55 -146t-137 -51q-107 0 -169 87z" />
<glyph unicode="K" horiz-adv-x="571" d="M88 0v667h32v-385l347 385h43l-290 -319l320 -348h-43l-297 328l-80 -87v-241h-32z" />
<glyph unicode="L" horiz-adv-x="499" d="M88 0v667h32v-637h335v-30h-367z" />
<glyph unicode="M" horiz-adv-x="770" d="M88 0v667h51l246 -597l246 597h51v-667h-32v629l-260 -629h-10l-260 629v-629h-32z" />
<glyph unicode="N" horiz-adv-x="690" d="M88 0v667h32l450 -609v609h32v-667h-32l-450 615v-615h-32z" />
<glyph unicode="O" horiz-adv-x="764" d="M65 333q0 148 87 246.5t230 98.5q142 0 229.5 -98.5t87.5 -246.5t-87.5 -246.5t-229.5 -98.5q-143 0 -230 98.5t-87 246.5zM100 333q0 -138 77 -226.5t205 -88.5q127 0 204.5 88.5t77.5 226.5q0 139 -77.5 227t-204.5 88q-128 0 -205 -88t-77 -227z" />
<glyph unicode="P" horiz-adv-x="555" d="M88 0v667h231q90 0 142.5 -54.5t52.5 -134.5q0 -79 -53 -134t-142 -55h-199v-289h-32zM120 319h198q73 0 117 44.5t44 114.5t-44 114.5t-117 44.5h-198v-318z" />
<glyph unicode="Q" horiz-adv-x="764" d="M65 333q0 148 87 246.5t230 98.5q142 0 229.5 -98.5t87.5 -246.5q0 -157 -98 -257l77 -76l-22 -23l-78 78q-83 -67 -196 -67q-143 0 -230 98.5t-87 246.5zM100 333q0 -138 77 -226.5t205 -88.5q100 0 173 59l-110 111l23 23l111 -112q85 88 85 234q0 139 -77.5 227 t-204.5 88q-128 0 -205 -88t-77 -227z" />
<glyph unicode="R" horiz-adv-x="579" d="M88 0v667h230q85 0 141 -50.5t56 -138.5t-56.5 -139t-140.5 -51l206 -288h-41l-203 288h-160v-288h-32zM120 318h198q73 0 117.5 45t44.5 115t-44.5 114.5t-117.5 44.5h-198v-319z" />
<glyph unicode="S" horiz-adv-x="575" d="M53 94l26 23q81 -99 207 -99q55 0 95 14.5t60 38t29 48t9 50.5q0 51 -30 85.5t-75 49.5t-97.5 31.5t-97.5 32t-75 51.5t-30 89q0 78 61 124t148 46q140 0 216 -94l-25 -23q-67 87 -191 87q-74 0 -124 -39.5t-50 -100.5q0 -38 22.5 -65t58 -42t79 -27.5t86.5 -27 t78.5 -34.5t58 -56.5t22.5 -86.5q0 -31 -11 -60.5t-35 -58t-71 -45.5t-111 -17q-75 0 -135 29t-98 77z" />
<glyph unicode="T" horiz-adv-x="559" d="M38 637v30h483v-30h-226v-637h-32v637h-225z" />
<glyph unicode="U" horiz-adv-x="672" d="M88 253v414h32v-414q0 -112 56 -173.5t160 -61.5t160 61.5t56 173.5v414h32v-414q0 -125 -64 -195t-184 -70t-184 70t-64 195z" />
<glyph unicode="V" horiz-adv-x="636" d="M21 667h37l260 -630l260 630h37l-278 -667h-38z" />
<glyph unicode="W" horiz-adv-x="852" d="M25 667h35l174 -619l175 619h34l175 -619l174 619h35l-190 -667h-38l-173 607l-173 -607h-38z" />
<glyph unicode="X" horiz-adv-x="638" d="M25 0l276 342l-261 325h43l236 -299l236 299h43l-261 -324l276 -343h-42l-252 318l-252 -318h-42z" />
<glyph unicode="Y" horiz-adv-x="610" d="M21 667h41l243 -346l243 346h41l-268 -378v-289h-32v289z" />
<glyph unicode="Z" horiz-adv-x="578" d="M53 0v30l427 607h-427v30h465v-30l-428 -607h435v-30h-472z" />
<glyph unicode="[" horiz-adv-x="212" d="M34 -190v868h161v-30h-131v-808h131v-30h-161z" />
<glyph unicode="\" horiz-adv-x="268" d="M0 687h31l237 -707h-31z" />
<glyph unicode="]" horiz-adv-x="212" d="M17 -160h131v808h-131v30h161v-868h-161v30z" />
<glyph unicode="^" horiz-adv-x="424" d="M19 333l180 334h26l180 -334h-34l-159 307l-159 -307h-34z" />
<glyph unicode="_" horiz-adv-x="564" d="M-3 -40h570v-30h-570v30z" />
<glyph unicode="`" horiz-adv-x="205" d="M0 700h45l160 -144h-30z" />
<glyph unicode="a" horiz-adv-x="514" d="M62 149q0 74 50 117.5t119 43.5q102 0 167 -71v109q0 56 -39 88t-97 32q-92 0 -155 -76l-23 20q37 43 78 63t100 20q74 0 120 -37.5t46 -108.5v-349h-30v59q-65 -71 -167 -71q-68 0 -118.5 43.5t-50.5 117.5zM95 149q0 -57 39.5 -95.5t104.5 -38.5q103 0 159 74v120 q-56 74 -159 74q-65 0 -104.5 -38.5t-39.5 -95.5z" />
<glyph unicode="b" horiz-adv-x="566" d="M86 0v667h30v-267q30 44 75.5 69.5t98.5 25.5q97 0 156.5 -70t59.5 -184q0 -115 -59 -184t-157 -69q-54 0 -101 26.5t-73 66.5v-81h-30zM116 111q24 -40 72 -68t102 -28q86 0 134.5 63.5t48.5 162.5t-48.5 163t-134.5 64q-54 0 -102 -29t-72 -69v-259z" />
<glyph unicode="c" horiz-adv-x="493" d="M60 242q0 107 63 180t165 73q56 0 94 -20t71 -61l-22 -18q-53 72 -141 72q-91 0 -144 -64.5t-53 -161.5q0 -98 53.5 -162.5t143.5 -64.5q87 0 141 73l22 -19q-33 -41 -71 -61t-94 -20q-102 0 -165 73.5t-63 180.5z" />
<glyph unicode="d" horiz-adv-x="566" d="M60 241q0 114 59.5 184t156.5 70q53 0 98.5 -25.5t75.5 -69.5v267h30v-667h-30v81q-26 -40 -73 -66.5t-101 -26.5q-98 0 -157 69t-59 184zM93 241q0 -99 48.5 -162.5t134.5 -63.5q54 0 102 28t72 68v259q-24 40 -72 69t-102 29q-86 0 -134.5 -64t-48.5 -163z" />
<glyph unicode="e" horiz-adv-x="571" d="M60 242q0 106 65 179.5t162 73.5q106 0 165 -73t59 -180v-10h-417q2 -92 57.5 -154.5t145.5 -62.5q100 0 168 73l18 -19q-78 -81 -186 -81q-105 0 -171 71.5t-66 182.5zM94 259h385q0 49 -20 95.5t-65.5 80t-107.5 33.5q-87 0 -138 -64.5t-54 -144.5z" />
<glyph unicode="f" horiz-adv-x="246" d="M20 456v27h80v51q0 67 32 105t89 38q45 0 82 -30l-18 -24q-29 27 -64 27q-91 0 -91 -116v-51h98v-27h-98v-456h-30v456h-80z" />
<glyph unicode="g" horiz-adv-x="566" d="M60 240q0 114 59.5 184.5t156.5 70.5q53 0 98.5 -25.5t75.5 -69.5v83h30v-486q0 -99 -55.5 -146t-148.5 -47q-63 0 -103.5 15t-81.5 58l22 25q31 -39 68.5 -55t94.5 -16q77 0 125.5 41.5t48.5 124.5v84q-27 -40 -73.5 -67.5t-100.5 -27.5q-98 0 -157 69.5t-59 184.5z M93 240q0 -99 48.5 -163t134.5 -64q54 0 102 29t72 69v259q-24 40 -72 69t-102 29q-86 0 -134.5 -64.5t-48.5 -163.5z" />
<glyph unicode="h" horiz-adv-x="528" d="M86 0v667h30v-260q29 35 78 61.5t97 26.5q75 0 113 -36.5t38 -119.5v-339h-30v339q0 72 -32 100.5t-93 28.5q-48 0 -96 -26.5t-75 -64.5v-377h-30z" />
<glyph unicode="i" horiz-adv-x="202" d="M72 595q0 12 9 20.5t20 8.5q12 0 20.5 -8.5t8.5 -20.5t-8.5 -20.5t-20.5 -8.5q-11 0 -20 8.5t-9 20.5zM86 0v483h30v-483h-30z" />
<glyph unicode="j" horiz-adv-x="202" d="M-95 -158l19 25q32 -36 73 -36q40 0 64.5 23t24.5 70v559h30v-559q0 -120 -119 -120q-51 0 -92 38zM72 595q0 12 9 20.5t20 8.5q12 0 20.5 -8.5t8.5 -20.5t-8.5 -20.5t-20.5 -8.5q-11 0 -20 8.5t-9 20.5z" />
<glyph unicode="k" horiz-adv-x="496" d="M86 0v667h30v-478l315 294h43l-235 -218l232 -265h-43l-212 243l-100 -92v-151h-30z" />
<glyph unicode="l" horiz-adv-x="202" d="M86 0v667h30v-667h-30z" />
<glyph unicode="m" horiz-adv-x="770" d="M86 0v483h30v-76q18 29 63 58.5t92 29.5q53 0 85 -27t40 -65q22 36 66.5 64t92.5 28q129 0 129 -147v-348h-30v348q0 120 -104 120q-40 0 -83.5 -26.5t-66.5 -63.5v-378h-30v348q0 120 -104 120q-40 0 -82.5 -26.5t-67.5 -64.5v-377h-30z" />
<glyph unicode="n" horiz-adv-x="528" d="M86 0v483h30v-76q29 35 78 61.5t97 26.5q75 0 113 -37.5t38 -120.5v-337h-30v337q0 72 -32 101.5t-93 29.5q-48 0 -96 -26.5t-75 -64.5v-377h-30z" />
<glyph unicode="o" horiz-adv-x="570" d="M60 242q0 108 62.5 180.5t162.5 72.5q101 0 163 -72t62 -181t-62 -181.5t-163 -72.5q-100 0 -162.5 72.5t-62.5 181.5zM93 242q0 -94 52 -160.5t140 -66.5q89 0 140.5 66.5t51.5 160.5q0 93 -51.5 159.5t-140.5 66.5q-88 0 -140 -66.5t-52 -159.5z" />
<glyph unicode="p" horiz-adv-x="562" d="M86 -184v667h30v-81q26 40 73 66.5t101 26.5q98 0 157 -69t59 -184q0 -114 -59.5 -184t-156.5 -70q-53 0 -98.5 25.5t-75.5 69.5v-267h-30zM116 113q24 -40 72 -69t102 -29q86 0 134.5 64t48.5 163t-48.5 162.5t-134.5 63.5q-54 0 -102 -28t-72 -68v-259z" />
<glyph unicode="q" horiz-adv-x="562" d="M56 242q0 115 59 184t157 69q54 0 101 -26.5t73 -66.5v81h30v-667h-30v267q-30 -44 -75.5 -69.5t-98.5 -25.5q-97 0 -156.5 70t-59.5 184zM89 242q0 -99 48.5 -163t134.5 -64q54 0 102 29t72 69v259q-24 40 -72 68t-102 28q-86 0 -134.5 -63.5t-48.5 -162.5z" />
<glyph unicode="r" horiz-adv-x="304" d="M86 0v483h30v-88q73 97 166 97v-36q-9 1 -24 1q-37 0 -81 -30t-61 -65v-362h-30z" />
<glyph unicode="s" horiz-adv-x="454" d="M44 65l24 22q54 -72 153 -72q65 0 104 31.5t39 80.5q0 41 -32 65t-77.5 35.5t-91 24t-77.5 40.5t-32 75q0 55 44 91.5t120 36.5q109 0 166 -73l-22 -20q-46 66 -144 66q-62 0 -98 -28.5t-36 -72.5q0 -37 32 -58.5t77.5 -32.5t91 -24t77.5 -43.5t32 -81.5 q0 -60 -44.5 -99.5t-128.5 -39.5q-110 0 -177 77z" />
<glyph unicode="t" horiz-adv-x="256" d="M12 456v27h80v132h30v-132h98v-27h-98v-371q0 -70 52 -70q35 0 57 26l18 -23q-32 -30 -75 -30q-82 0 -82 97v371h-80z" />
<glyph unicode="u" horiz-adv-x="528" d="M86 144v339h30v-339q0 -72 32 -100.5t93 -28.5q48 0 96.5 25.5t74.5 62.5v380h30v-483h-30v74q-33 -37 -80 -61.5t-95 -24.5q-75 0 -113 36.5t-38 119.5z" />
<glyph unicode="v" horiz-adv-x="471" d="M11 483h35l190 -448l189 448h35l-207 -483h-35z" />
<glyph unicode="w" horiz-adv-x="704" d="M22 483h33l140 -436l145 436h24l145 -436l140 436h33l-160 -483h-24l-146 438l-146 -438h-24z" />
<glyph unicode="x" horiz-adv-x="472" d="M22 0l197 248l-186 235h39l164 -214l164 214h39l-186 -235l197 -248h-39l-175 228l-175 -228h-39z" />
<glyph unicode="y" horiz-adv-x="471" d="M11 483h35l190 -448l189 448h35l-256 -597q-36 -82 -106 -82q-27 0 -48 7l6 28q18 -8 42 -8q25 0 42.5 14.5t33.5 51.5l44 100z" />
<glyph unicode="z" horiz-adv-x="466" d="M60 0v27l307 429h-307v27h342v-27l-309 -429h313v-27h-346z" />
<glyph unicode="{" horiz-adv-x="237" d="M7 229v30q25 0 38.5 21t13.5 51v234q0 49 30 81t69 32h62v-30h-62q-28 0 -48.5 -24t-20.5 -59v-234q0 -68 -45 -87q45 -19 45 -87v-234q0 -35 20.5 -59t48.5 -24h62v-30h-62q-39 0 -69 32t-30 81v234q0 30 -13.5 51t-38.5 21z" />
<glyph unicode="|" horiz-adv-x="206" d="M88 -20v707h30v-707h-30z" />
<glyph unicode="}" horiz-adv-x="237" d="M17 -160h62q28 0 48.5 24t20.5 59v234q0 68 45 87q-45 19 -45 87v234q0 35 -20.5 59t-48.5 24h-62v30h62q39 0 69 -32t30 -81v-234q0 -30 13.5 -51t38.5 -21v-30q-25 0 -38.5 -21t-13.5 -51v-234q0 -49 -30 -81t-69 -32h-62v30z" />
<glyph unicode="~" horiz-adv-x="496" d="M28 436q10 105 39.5 167t89.5 62q33 0 56 -21t34.5 -50.5t22 -59.5t27.5 -51t42 -21q42 0 65.5 50.5t33.5 154.5l30 -3q-7 -68 -19 -115.5t-40 -81.5t-70 -34q-41 0 -66.5 31.5t-35.5 69.5t-30 69.5t-50 31.5q-79 0 -99 -204z" />
<glyph unicode="&#xa1;" d="M71 459q0 13 9.5 23t23.5 10t23.5 -10t9.5 -23t-10 -22.5t-23 -9.5t-23 9.5t-10 22.5zM83 -184l11 506h20l11 -506h-42z" />
<glyph unicode="&#xa2;" horiz-adv-x="493" d="M60 242q0 100 55 170.5t147 80.5v72h30v-70q96 -1 161 -81l-22 -18q-53 70 -139 72v-453q85 0 139 73l22 -19q-65 -80 -161 -81v-88h-30v90q-92 10 -147 81t-55 171zM93 242q0 -89 45.5 -152.5t123.5 -73.5v450q-79 -10 -124 -72.5t-45 -151.5z" />
<glyph unicode="&#xa3;" horiz-adv-x="491" d="M17 267v30h143q-7 8 -34 36t-38.5 43.5t-24 46.5t-12.5 66q0 75 58.5 131.5t149.5 56.5q55 0 103.5 -28.5t71.5 -75.5l-26 -18q-15 36 -56 64t-93 28q-73 0 -124 -42.5t-51 -115.5q0 -33 12 -63t26 -47t37.5 -42.5t34.5 -39.5h152v-30h-133q16 -30 16 -64 q0 -50 -22.5 -84t-63.5 -65q28 10 55 10q35 0 83.5 -24t78.5 -24q32 0 62 14t42 29l18 -27q-48 -46 -124 -46q-46 0 -90 24t-88 24q-39 0 -119 -41l-14 33q76 32 114 78t38 99q0 33 -18 64h-164z" />
<glyph unicode="&#xa4;" horiz-adv-x="577" d="M31 570l21 21l82 -83q63 58 154 58q92 0 154 -57l81 81l21 -21l-82 -82q51 -63 51 -154q0 -89 -50 -153l81 -81l-21 -21l-80 80q-62 -59 -155 -59q-94 0 -155 59l-80 -80l-21 21l81 81q-50 64 -50 153q0 91 51 154zM96 333q0 -84 52 -144t140 -60q89 0 140.5 60t51.5 144 t-51.5 143.5t-140.5 59.5q-88 0 -140 -60t-52 -143z" />
<glyph unicode="&#xa5;" horiz-adv-x="610" d="M21 129v30h268v130h-268v30h246l-246 348h41l243 -346l243 346h41l-247 -348h247v-30h-268v-130h268v-30h-268v-129h-32v129h-268z" />
<glyph unicode="&#xa6;" horiz-adv-x="206" d="M88 -20v316h30v-316h-30zM88 371v316h30v-316h-30z" />
<glyph unicode="&#xa7;" horiz-adv-x="454" d="M44 -4l24 22q54 -72 153 -72q63 0 103 30.5t40 81.5q0 40 -32 64.5t-77.5 36t-91 24t-77.5 40.5t-32 75q0 52 35.5 84.5t94.5 45.5q-64 18 -97 45t-33 76q0 54 43 91t121 37q108 0 166 -73l-22 -20q-48 66 -144 66q-58 0 -96 -28.5t-38 -74.5q0 -37 32 -58.5t77.5 -32 t91 -23t77.5 -44t32 -83.5q0 -88 -100 -127q50 -18 75 -46.5t25 -74.5q0 -65 -47.5 -102t-125.5 -37q-65 0 -104.5 20t-72.5 57zM84 296q0 -30 23.5 -50.5t52 -30t78.5 -21.5q15 -3 22 -5q104 45 104 120q0 25 -11.5 43.5t-35 31t-41.5 19t-50 14.5q-79 -21 -110.5 -50 t-31.5 -71z" />
<glyph unicode="&#xa8;" horiz-adv-x="252" d="M-3 598q0 11 8.5 19.5t19.5 8.5t19.5 -8.5t8.5 -19.5t-8.5 -19.5t-19.5 -8.5t-19.5 8.5t-8.5 19.5zM199 598q0 11 8.5 19.5t19.5 8.5t19.5 -8.5t8.5 -19.5t-8.5 -19.5t-19.5 -8.5t-19.5 8.5t-8.5 19.5z" />
<glyph unicode="&#xa9;" horiz-adv-x="778" d="M44 334q0 143 101 244t244 101t244 -101t101 -244t-101 -244t-244 -101t-244 101.5t-101 243.5zM70 334q0 -131 94 -225t225 -94q132 0 225.5 94t93.5 225q0 132 -93.5 225.5t-225.5 93.5q-131 0 -225 -93.5t-94 -225.5zM181 336q0 91 60.5 152.5t147.5 61.5 q89 0 144 -64l-20 -20q-19 26 -53.5 41.5t-70.5 15.5q-73 0 -126 -52.5t-53 -135.5q0 -81 53.5 -135t125.5 -54q36 0 70.5 16t53.5 42l20 -20q-56 -65 -144 -65q-87 0 -147.5 63t-60.5 154z" />
<glyph unicode="&#xaa;" horiz-adv-x="372" d="M50 423q0 48 33.5 76t79.5 28q68 0 113 -46v68q0 35 -27 54.5t-63 19.5q-64 0 -103 -50l-18 19q48 56 122 56q52 0 84 -25t32 -74v-223h-27v38q-45 -46 -113 -46q-45 0 -79 29t-34 76zM79 423q0 -36 25.5 -59.5t67.5 -23.5q67 0 104 46v73q-37 46 -104 46 q-41 0 -67 -23.5t-26 -58.5z" />
<glyph unicode="&#xab;" horiz-adv-x="364" d="M30 243l160 177h39l-160 -177l160 -180h-39zM135 243l160 177h39l-160 -177l160 -180h-39z" />
<glyph unicode="&#xac;" horiz-adv-x="494" d="M29 418v30h436v-228h-32v198h-404z" />
<glyph unicode="&#xad;" horiz-adv-x="300" d="M30 227v30h240v-30h-240z" />
<glyph unicode="&#xae;" horiz-adv-x="494" d="M35 465q0 88 62 150t150 62q89 0 150.5 -61.5t61.5 -150.5q0 -88 -62 -150t-150 -62t-150 62t-62 150zM61 465q0 -77 54.5 -131.5t131.5 -54.5t131.5 54.5t54.5 131.5q0 78 -54.5 132t-131.5 54t-131.5 -54t-54.5 -132zM167 343v243h99q31 0 52.5 -20.5t21.5 -53.5 q0 -35 -22.5 -53.5t-39.5 -18.5l65 -97h-37l-63 96h-47v-96h-29zM196 467h70q16 0 30 13.5t14 31.5q0 20 -14 33.5t-30 13.5h-70v-92z" />
<glyph unicode="&#xaf;" horiz-adv-x="363" d="M0 581v27h363v-27h-363z" />
<glyph unicode="&#xb0;" horiz-adv-x="273" d="M26 566q0 46 32 78.5t78 32.5t78.5 -32.5t32.5 -78.5t-32.5 -78t-78.5 -32t-78 32t-32 78zM56 566q0 -33 23.5 -56.5t56.5 -23.5t57 23.5t24 56.5t-24 57t-57 24t-56.5 -24t-23.5 -57z" />
<glyph unicode="&#xb1;" horiz-adv-x="494" d="M29 0v30h436v-30h-436zM29 322v30h202v216h32v-216h202v-30h-202v-222h-32v222h-202z" />
<glyph unicode="&#xb2;" horiz-adv-x="380" d="M54 421v24q119 86 179.5 149t60.5 120q0 44 -29.5 65.5t-70.5 21.5q-78 0 -114 -53l-20 18q43 61 135 61q50 0 89 -28t39 -84q0 -64 -57.5 -126t-167.5 -142h227v-26h-271z" />
<glyph unicode="&#xb3;" horiz-adv-x="380" d="M50 480l20 17q40 -57 118 -57q50 0 79 23.5t29 64.5q0 44 -33 65.5t-84 21.5q-30 0 -36 -1v27q6 -1 36 -1q48 0 79.5 20t31.5 61q0 37 -30 58.5t-73 21.5q-67 0 -113 -52l-19 18q51 60 133 60q55 0 93 -28.5t38 -76.5q0 -43 -28 -66t-61 -28q33 -3 64.5 -28.5t31.5 -71.5 q0 -51 -37 -82.5t-101 -31.5q-48 0 -84 18.5t-54 47.5z" />
<glyph unicode="&#xb4;" horiz-adv-x="205" d="M0 556l160 144h45l-175 -144h-30z" />
<glyph unicode="&#xb5;" horiz-adv-x="542" d="M86 -184v667h30v-339q0 -131 127 -131q47 0 95 26.5t74 63.5v380h30v-398q0 -70 52 -70q12 0 20 2l3 -27q-12 -2 -23 -2q-75 0 -82 86q-32 -37 -77.5 -61.5t-91.5 -24.5q-95 0 -127 65v-237h-30z" />
<glyph unicode="&#xb6;" horiz-adv-x="449" d="M27 495q0 71 50.5 121.5t121.5 50.5h158v-767h-30v737h-98v-737h-30v423q-71 0 -121.5 50.5t-50.5 121.5z" />
<glyph unicode="&#xb7;" d="M71 245q0 13 10 22.5t23 9.5t23 -9.5t10 -22.5t-9.5 -23t-23.5 -10t-23.5 10t-9.5 23z" />
<glyph unicode="&#xb8;" horiz-adv-x="191" d="M0 -159l14 27q32 -28 79 -28q29 0 49 13.5t20 35.5q0 43 -44 43q-27 0 -43 -19l-22 13l31 85h30l-26 -69q15 12 38 12q29 0 47 -17.5t18 -47.5q0 -33 -28 -54.5t-70 -21.5q-58 0 -93 28z" />
<glyph unicode="&#xb9;" horiz-adv-x="192" d="M20 732l85 89h27v-400h-30v360l-63 -69z" />
<glyph unicode="&#xba;" horiz-adv-x="405" d="M48 483q0 71 43 118t111 47q69 0 112 -47t43 -118q0 -70 -43 -117.5t-112 -47.5q-68 0 -111 47.5t-43 117.5zM78 483q0 -58 33.5 -98.5t90.5 -40.5q58 0 92 40.5t34 98.5t-34 98t-92 40q-57 0 -90.5 -40t-33.5 -98z" />
<glyph unicode="&#xbb;" horiz-adv-x="364" d="M30 63l160 180l-160 177h39l160 -177l-160 -180h-39zM135 63l160 180l-160 177h39l160 -177l-160 -180h-39z" />
<glyph unicode="&#xbc;" horiz-adv-x="715" d="M20 578l85 89h27v-400h-30v360l-63 -69zM83 0l426 667h37l-427 -667h-36zM382 113v26l186 261h39v-261h62v-26h-62v-113h-29v113h-196zM413 139h165v232z" />
<glyph unicode="&#xbd;" horiz-adv-x="755" d="M20 578l85 89h27v-400h-30v360l-63 -69zM83 0l426 667h37l-427 -667h-36zM429 0v24q119 86 179.5 149t60.5 120q0 44 -29.5 65.5t-70.5 21.5q-78 0 -114 -53l-20 18q43 61 135 61q50 0 89 -28t39 -84q0 -64 -57.5 -126t-167.5 -142h227v-26h-271z" />
<glyph unicode="&#xbe;" horiz-adv-x="841" d="M50 326l20 17q40 -57 118 -57q50 0 79 23.5t29 64.5q0 44 -33 65.5t-84 21.5q-30 0 -36 -1v27q6 -1 36 -1q48 0 79.5 20t31.5 61q0 37 -30 58.5t-73 21.5q-67 0 -113 -52l-19 18q51 60 133 60q55 0 93 -28.5t38 -76.5q0 -43 -28 -66t-61 -28q33 -3 64.5 -28.5t31.5 -71.5 q0 -51 -37 -82.5t-101 -31.5q-48 0 -84 18.5t-54 47.5zM209 0l426 667h37l-427 -667h-36zM508 113v26l186 261h39v-261h62v-26h-62v-113h-29v113h-196zM539 139h165v232z" />
<glyph unicode="&#xbf;" horiz-adv-x="391" d="M41 -44q0 36 16 66.5t40 50t51.5 39.5t51.5 36.5t40 39t16 48.5q0 30 -33 53l19 23q44 -33 44 -76q0 -37 -21.5 -67t-52.5 -50.5t-62 -42t-52.5 -52t-21.5 -68.5q0 -52 40 -87.5t111 -35.5q68 0 112.5 25t78.5 73l23 -21q-75 -107 -214 -107q-85 0 -135.5 44.5 t-50.5 108.5zM212 459q0 13 10 23t23 10t23 -10t10 -23t-10 -22.5t-23 -9.5t-23 9.5t-10 22.5z" />
<glyph unicode="&#xc0;" horiz-adv-x="636" d="M21 0l278 667h38l278 -667h-37l-74 179h-372l-74 -179h-37zM144 209h348l-174 421zM164 867h45l160 -144h-30z" />
<glyph unicode="&#xc1;" horiz-adv-x="636" d="M21 0l278 667h38l278 -667h-37l-74 179h-372l-74 -179h-37zM144 209h348l-174 421zM267 723l160 144h45l-175 -144h-30z" />
<glyph unicode="&#xc2;" horiz-adv-x="636" d="M21 0l278 667h38l278 -667h-37l-74 179h-372l-74 -179h-37zM144 209h348l-174 421zM202 723l98 144h36l101 -144h-28l-91 120l-88 -120h-28z" />
<glyph unicode="&#xc3;" horiz-adv-x="636" d="M21 0l278 667h38l278 -667h-37l-74 179h-372l-74 -179h-37zM144 209h348l-174 421zM168 727q0 57 23.5 95.5t64.5 38.5q26 0 44.5 -17.5t27 -39t23 -39t33.5 -17.5q26 0 42.5 26.5t16.5 80.5h26q0 -57 -23.5 -95.5t-64.5 -38.5q-26 0 -44.5 17.5t-27 39t-23 39 t-33.5 17.5q-26 0 -42.5 -26.5t-16.5 -80.5h-26z" />
<glyph unicode="&#xc4;" horiz-adv-x="636" d="M21 0l278 667h38l278 -667h-37l-74 179h-372l-74 -179h-37zM144 209h348l-174 421zM190 765q0 11 8.5 19.5t19.5 8.5t19.5 -8.5t8.5 -19.5t-8.5 -19.5t-19.5 -8.5t-19.5 8.5t-8.5 19.5zM392 765q0 11 8.5 19.5t19.5 8.5t19.5 -8.5t8.5 -19.5t-8.5 -19.5t-19.5 -8.5 t-19.5 8.5t-8.5 19.5z" />
<glyph unicode="&#xc5;" horiz-adv-x="636" d="M21 0l278 667h38l278 -667h-37l-74 179h-372l-74 -179h-37zM144 209h348l-174 421zM226 785q0 38 27.5 65.5t65.5 27.5t65 -27.5t27 -65.5t-27 -65.5t-65 -27.5t-65.5 27.5t-27.5 65.5zM250 785q0 -29 20 -49t49 -20q28 0 48 20t20 49t-20 49t-48 20q-29 0 -49 -20 t-20 -49z" />
<glyph unicode="&#xc6;" horiz-adv-x="930" d="M21 0l425 667h419v-30h-376v-279h369v-30h-369v-298h376v-30h-408v179h-286l-113 -179h-37zM188 209h269v421z" />
<glyph unicode="&#xc7;" horiz-adv-x="667" d="M65 333q0 151 96 248t237 97t232 -105l-25 -22q-36 45 -90.5 71t-116.5 26q-127 0 -212.5 -88t-85.5 -227q0 -138 85.5 -226.5t212.5 -88.5q62 0 116.5 26t90.5 71l26 -21q-93 -105 -228 -106l-16 -42q15 12 38 12q29 0 47 -17.5t18 -47.5q0 -33 -28 -54.5t-70 -21.5 q-58 0 -93 28l14 27q32 -28 79 -28q29 0 49 13.5t20 35.5q0 43 -44 43q-27 0 -43 -19l-22 13l21 59q-132 9 -220 104.5t-88 239.5z" />
<glyph unicode="&#xc8;" horiz-adv-x="558" d="M88 0v667h408v-30h-376v-279h369v-30h-369v-298h376v-30h-408zM138 867h45l160 -144h-30z" />
<glyph unicode="&#xc9;" horiz-adv-x="558" d="M88 0v667h408v-30h-376v-279h369v-30h-369v-298h376v-30h-408zM241 723l160 144h45l-175 -144h-30z" />
<glyph unicode="&#xca;" horiz-adv-x="558" d="M88 0v667h408v-30h-376v-279h369v-30h-369v-298h376v-30h-408zM173 723l98 144h36l101 -144h-28l-91 120l-88 -120h-28z" />
<glyph unicode="&#xcb;" horiz-adv-x="558" d="M88 0v667h408v-30h-376v-279h369v-30h-369v-298h376v-30h-408zM161 765q0 11 8.5 19.5t19.5 8.5t19.5 -8.5t8.5 -19.5t-8.5 -19.5t-19.5 -8.5t-19.5 8.5t-8.5 19.5zM363 765q0 11 8.5 19.5t19.5 8.5t19.5 -8.5t8.5 -19.5t-8.5 -19.5t-19.5 -8.5t-19.5 8.5t-8.5 19.5z" />
<glyph unicode="&#xcc;" d="M-50 867h45l160 -144h-30zM88 0v667h32v-667h-32z" />
<glyph unicode="&#xcd;" d="M53 723l160 144h45l-175 -144h-30zM88 0v667h32v-667h-32z" />
<glyph unicode="&#xce;" d="M-12 723l98 144h36l101 -144h-28l-91 120l-88 -120h-28zM88 0v667h32v-667h-32z" />
<glyph unicode="&#xcf;" d="M-25 765q0 11 8.5 19.5t19.5 8.5t19.5 -8.5t8.5 -19.5t-8.5 -19.5t-19.5 -8.5t-19.5 8.5t-8.5 19.5zM88 0v667h32v-667h-32zM177 765q0 11 8.5 19.5t19.5 8.5t19.5 -8.5t8.5 -19.5t-8.5 -19.5t-19.5 -8.5t-19.5 8.5t-8.5 19.5z" />
<glyph unicode="&#xd0;" horiz-adv-x="715" d="M12 318v30h107v319h198q150 0 241 -97.5t91 -236.5q0 -140 -90.5 -236.5t-241.5 -96.5h-198v318h-107zM151 30h166q138 0 217.5 86t79.5 217q0 130 -80 217t-217 87h-166v-289h188v-30h-188v-288z" />
<glyph unicode="&#xd1;" horiz-adv-x="690" d="M88 0v667h32l450 -609v609h32v-667h-32l-450 615v-615h-32zM193 727q0 57 23.5 95.5t64.5 38.5q26 0 44.5 -17.5t27 -39t23 -39t33.5 -17.5q26 0 42.5 26.5t16.5 80.5h26q0 -57 -23.5 -95.5t-64.5 -38.5q-26 0 -44.5 17.5t-27 39t-23 39t-33.5 17.5q-26 0 -42.5 -26.5 t-16.5 -80.5h-26z" />
<glyph unicode="&#xd2;" horiz-adv-x="764" d="M65 333q0 148 87 246.5t230 98.5q142 0 229.5 -98.5t87.5 -246.5t-87.5 -246.5t-229.5 -98.5q-143 0 -230 98.5t-87 246.5zM100 333q0 -138 77 -226.5t205 -88.5q127 0 204.5 88.5t77.5 226.5q0 139 -77.5 227t-204.5 88q-128 0 -205 -88t-77 -227zM228 867h45l160 -144 h-30z" />
<glyph unicode="&#xd3;" horiz-adv-x="764" d="M65 333q0 148 87 246.5t230 98.5q142 0 229.5 -98.5t87.5 -246.5t-87.5 -246.5t-229.5 -98.5q-143 0 -230 98.5t-87 246.5zM100 333q0 -138 77 -226.5t205 -88.5q127 0 204.5 88.5t77.5 226.5q0 139 -77.5 227t-204.5 88q-128 0 -205 -88t-77 -227zM331 723l160 144h45 l-175 -144h-30z" />
<glyph unicode="&#xd4;" horiz-adv-x="764" d="M65 333q0 148 87 246.5t230 98.5q142 0 229.5 -98.5t87.5 -246.5t-87.5 -246.5t-229.5 -98.5q-143 0 -230 98.5t-87 246.5zM100 333q0 -138 77 -226.5t205 -88.5q127 0 204.5 88.5t77.5 226.5q0 139 -77.5 227t-204.5 88q-128 0 -205 -88t-77 -227zM266 723l98 144h36 l101 -144h-28l-91 120l-88 -120h-28z" />
<glyph unicode="&#xd5;" horiz-adv-x="764" d="M65 333q0 148 87 246.5t230 98.5q142 0 229.5 -98.5t87.5 -246.5t-87.5 -246.5t-229.5 -98.5q-143 0 -230 98.5t-87 246.5zM100 333q0 -138 77 -226.5t205 -88.5q127 0 204.5 88.5t77.5 226.5q0 139 -77.5 227t-204.5 88q-128 0 -205 -88t-77 -227zM232 727 q0 57 23.5 95.5t64.5 38.5q26 0 44.5 -17.5t27 -39t23 -39t33.5 -17.5q26 0 42.5 26.5t16.5 80.5h26q0 -57 -23.5 -95.5t-64.5 -38.5q-26 0 -44.5 17.5t-27 39t-23 39t-33.5 17.5q-26 0 -42.5 -26.5t-16.5 -80.5h-26z" />
<glyph unicode="&#xd6;" horiz-adv-x="764" d="M65 333q0 148 87 246.5t230 98.5q142 0 229.5 -98.5t87.5 -246.5t-87.5 -246.5t-229.5 -98.5q-143 0 -230 98.5t-87 246.5zM100 333q0 -138 77 -226.5t205 -88.5q127 0 204.5 88.5t77.5 226.5q0 139 -77.5 227t-204.5 88q-128 0 -205 -88t-77 -227zM251 765 q0 11 8.5 19.5t19.5 8.5t19.5 -8.5t8.5 -19.5t-8.5 -19.5t-19.5 -8.5t-19.5 8.5t-8.5 19.5zM453 765q0 11 8.5 19.5t19.5 8.5t19.5 -8.5t8.5 -19.5t-8.5 -19.5t-19.5 -8.5t-19.5 8.5t-8.5 19.5z" />
<glyph unicode="&#xd7;" horiz-adv-x="494" d="M71 179l155 155l-155 155l21 21l155 -155l155 155l21 -21l-155 -155l155 -155l-21 -21l-155 155l-155 -155z" />
<glyph unicode="&#xd8;" horiz-adv-x="764" d="M65 333q0 148 87 246.5t230 98.5q89 0 162 -43l19 32h36l-30 -50q62 -46 96 -120.5t34 -163.5q0 -148 -87.5 -246.5t-229.5 -98.5q-92 0 -163 43l-18 -31h-36l29 48q-62 47 -95.5 121t-33.5 164zM100 333q0 -170 110 -258l318 534q-64 39 -146 39q-128 0 -205 -88 t-77 -227zM235 57q64 -39 147 -39q127 0 204.5 88.5t77.5 226.5q0 169 -111 258z" />
<glyph unicode="&#xd9;" horiz-adv-x="672" d="M88 253v414h32v-414q0 -112 56 -173.5t160 -61.5t160 61.5t56 173.5v414h32v-414q0 -125 -64 -195t-184 -70t-184 70t-64 195zM182 867h45l160 -144h-30z" />
<glyph unicode="&#xda;" horiz-adv-x="672" d="M88 253v414h32v-414q0 -112 56 -173.5t160 -61.5t160 61.5t56 173.5v414h32v-414q0 -125 -64 -195t-184 -70t-184 70t-64 195zM285 723l160 144h45l-175 -144h-30z" />
<glyph unicode="&#xdb;" horiz-adv-x="672" d="M88 253v414h32v-414q0 -112 56 -173.5t160 -61.5t160 61.5t56 173.5v414h32v-414q0 -125 -64 -195t-184 -70t-184 70t-64 195zM222 723l98 144h36l101 -144h-28l-91 120l-88 -120h-28z" />
<glyph unicode="&#xdc;" horiz-adv-x="672" d="M88 253v414h32v-414q0 -112 56 -173.5t160 -61.5t160 61.5t56 173.5v414h32v-414q0 -125 -64 -195t-184 -70t-184 70t-64 195zM207 765q0 11 8.5 19.5t19.5 8.5t19.5 -8.5t8.5 -19.5t-8.5 -19.5t-19.5 -8.5t-19.5 8.5t-8.5 19.5zM409 765q0 11 8.5 19.5t19.5 8.5 t19.5 -8.5t8.5 -19.5t-8.5 -19.5t-19.5 -8.5t-19.5 8.5t-8.5 19.5z" />
<glyph unicode="&#xdd;" horiz-adv-x="610" d="M21 667h41l243 -346l243 346h41l-268 -378v-289h-32v289zM254 723l160 144h45l-175 -144h-30z" />
<glyph unicode="&#xde;" horiz-adv-x="555" d="M88 0v667h32v-129h199q90 0 142.5 -55t52.5 -135q0 -79 -53 -133.5t-142 -54.5h-199v-160h-32zM120 190h198q73 0 117 44t44 114t-44 115t-117 45h-198v-318z" />
<glyph unicode="&#xdf;" horiz-adv-x="558" d="M86 0v519q0 68 44 113t114 45q62 0 105 -30.5t43 -79.5q0 -36 -26 -62.5t-57 -41t-57 -40t-26 -58.5q0 -37 32 -58.5t77.5 -32t91 -23t77.5 -43t32 -81.5q0 -57 -43 -98t-130 -41q-65 0 -104.5 20t-72.5 57l24 22q55 -72 153 -72q69 0 106 33t37 79q0 41 -32 65 t-77.5 35.5t-91 24t-77.5 40.5t-32 75q0 38 26 67t57 44.5t57 38.5t26 50q0 38 -36.5 60.5t-81.5 22.5q-54 0 -91 -36t-37 -95v-519h-30z" />
<glyph unicode="&#xe0;" horiz-adv-x="514" d="M62 149q0 74 50 117.5t119 43.5q102 0 167 -71v109q0 56 -39 88t-97 32q-92 0 -155 -76l-23 20q37 43 78 63t100 20q74 0 120 -37.5t46 -108.5v-349h-30v59q-65 -71 -167 -71q-68 0 -118.5 43.5t-50.5 117.5zM95 149q0 -57 39.5 -95.5t104.5 -38.5q103 0 159 74v120 q-56 74 -159 74q-65 0 -104.5 -38.5t-39.5 -95.5zM108 700h45l160 -144h-30z" />
<glyph unicode="&#xe1;" horiz-adv-x="514" d="M62 149q0 74 50 117.5t119 43.5q102 0 167 -71v109q0 56 -39 88t-97 32q-92 0 -155 -76l-23 20q37 43 78 63t100 20q74 0 120 -37.5t46 -108.5v-349h-30v59q-65 -71 -167 -71q-68 0 -118.5 43.5t-50.5 117.5zM95 149q0 -57 39.5 -95.5t104.5 -38.5q103 0 159 74v120 q-56 74 -159 74q-65 0 -104.5 -38.5t-39.5 -95.5zM211 556l160 144h45l-175 -144h-30z" />
<glyph unicode="&#xe2;" horiz-adv-x="514" d="M62 149q0 74 50 117.5t119 43.5q102 0 167 -71v109q0 56 -39 88t-97 32q-92 0 -155 -76l-23 20q37 43 78 63t100 20q74 0 120 -37.5t46 -108.5v-349h-30v59q-65 -71 -167 -71q-68 0 -118.5 43.5t-50.5 117.5zM95 149q0 -57 39.5 -95.5t104.5 -38.5q103 0 159 74v120 q-56 74 -159 74q-65 0 -104.5 -38.5t-39.5 -95.5zM146 556l98 144h36l101 -144h-28l-91 120l-88 -120h-28z" />
<glyph unicode="&#xe3;" horiz-adv-x="514" d="M62 149q0 74 50 117.5t119 43.5q102 0 167 -71v109q0 56 -39 88t-97 32q-92 0 -155 -76l-23 20q37 43 78 63t100 20q74 0 120 -37.5t46 -108.5v-349h-30v59q-65 -71 -167 -71q-68 0 -118.5 43.5t-50.5 117.5zM95 149q0 -57 39.5 -95.5t104.5 -38.5q103 0 159 74v120 q-56 74 -159 74q-65 0 -104.5 -38.5t-39.5 -95.5zM111 560q0 57 23.5 95.5t64.5 38.5q26 0 44.5 -17.5t27 -39t23 -39t33.5 -17.5q26 0 42.5 26.5t16.5 80.5h26q0 -57 -23.5 -95.5t-64.5 -38.5q-26 0 -44.5 17.5t-27 39t-23 39t-33.5 17.5q-26 0 -42.5 -26.5t-16.5 -80.5 h-26z" />
<glyph unicode="&#xe4;" horiz-adv-x="514" d="M62 149q0 74 50 117.5t119 43.5q102 0 167 -71v109q0 56 -39 88t-97 32q-92 0 -155 -76l-23 20q37 43 78 63t100 20q74 0 120 -37.5t46 -108.5v-349h-30v59q-65 -71 -167 -71q-68 0 -118.5 43.5t-50.5 117.5zM95 149q0 -57 39.5 -95.5t104.5 -38.5q103 0 159 74v120 q-56 74 -159 74q-65 0 -104.5 -38.5t-39.5 -95.5zM131 598q0 11 8.5 19.5t19.5 8.5t19.5 -8.5t8.5 -19.5t-8.5 -19.5t-19.5 -8.5t-19.5 8.5t-8.5 19.5zM333 598q0 11 8.5 19.5t19.5 8.5t19.5 -8.5t8.5 -19.5t-8.5 -19.5t-19.5 -8.5t-19.5 8.5t-8.5 19.5z" />
<glyph unicode="&#xe5;" horiz-adv-x="514" d="M62 149q0 74 50 117.5t119 43.5q102 0 167 -71v109q0 56 -39 88t-97 32q-92 0 -155 -76l-23 20q37 43 78 63t100 20q74 0 120 -37.5t46 -108.5v-349h-30v59q-65 -71 -167 -71q-68 0 -118.5 43.5t-50.5 117.5zM95 149q0 -57 39.5 -95.5t104.5 -38.5q103 0 159 74v120 q-56 74 -159 74q-65 0 -104.5 -38.5t-39.5 -95.5zM168 646q0 38 27.5 65.5t65.5 27.5t65 -27.5t27 -65.5t-27 -65.5t-65 -27.5t-65.5 27.5t-27.5 65.5zM192 646q0 -28 20 -48.5t49 -20.5q28 0 48 20t20 49t-20 49t-48 20q-29 0 -49 -20.5t-20 -48.5z" />
<glyph unicode="&#xe6;" horiz-adv-x="905" d="M62 150q0 74 52.5 117t127.5 43q112 0 182 -69v107q0 57 -40 88.5t-108 31.5q-100 0 -169 -76l-23 20q71 83 200 83q61 0 111 -29.5t57 -94.5q23 54 72.5 89t108.5 35q101 0 156.5 -73t55.5 -180v-10h-391q3 -92 54 -154.5t134 -62.5q93 0 157 73l18 -19 q-71 -81 -174 -81q-68 0 -120.5 37t-77.5 105q-21 -65 -72.5 -103.5t-119.5 -38.5q-84 0 -137.5 43.5t-53.5 118.5zM95 149q0 -57 43 -95.5t114 -38.5q78 0 125 51t47 122v19q-61 76 -172 76q-71 0 -114 -38.5t-43 -95.5zM454 259h359q0 81 -46 145t-134 64 q-80 0 -128 -64.5t-51 -144.5z" />
<glyph unicode="&#xe7;" horiz-adv-x="493" d="M60 242q0 107 63 180t165 73q56 0 94 -20t71 -61l-22 -18q-53 72 -141 72q-91 0 -144 -64.5t-53 -161.5q0 -98 53.5 -162.5t143.5 -64.5q87 0 141 73l22 -19q-61 -77 -154 -81l-16 -44q15 12 38 12q29 0 47 -17.5t18 -47.5q0 -33 -28 -54.5t-70 -21.5q-58 0 -93 28l14 27 q32 -28 79 -28q29 0 49 13.5t20 35.5q0 43 -44 43q-27 0 -43 -19l-22 13l22 61q-95 7 -152.5 79t-57.5 174z" />
<glyph unicode="&#xe8;" horiz-adv-x="571" d="M60 242q0 106 65 179.5t162 73.5q106 0 165 -73t59 -180v-10h-417q2 -92 57.5 -154.5t145.5 -62.5q100 0 168 73l18 -19q-78 -81 -186 -81q-105 0 -171 71.5t-66 182.5zM94 259h385q0 49 -20 95.5t-65.5 80t-107.5 33.5q-87 0 -138 -64.5t-54 -144.5zM133 700h45 l160 -144h-30z" />
<glyph unicode="&#xe9;" horiz-adv-x="571" d="M60 242q0 106 65 179.5t162 73.5q106 0 165 -73t59 -180v-10h-417q2 -92 57.5 -154.5t145.5 -62.5q100 0 168 73l18 -19q-78 -81 -186 -81q-105 0 -171 71.5t-66 182.5zM94 259h385q0 49 -20 95.5t-65.5 80t-107.5 33.5q-87 0 -138 -64.5t-54 -144.5zM236 556l160 144h45 l-175 -144h-30z" />
<glyph unicode="&#xea;" horiz-adv-x="571" d="M60 242q0 106 65 179.5t162 73.5q106 0 165 -73t59 -180v-10h-417q2 -92 57.5 -154.5t145.5 -62.5q100 0 168 73l18 -19q-78 -81 -186 -81q-105 0 -171 71.5t-66 182.5zM94 259h385q0 49 -20 95.5t-65.5 80t-107.5 33.5q-87 0 -138 -64.5t-54 -144.5zM172 556l98 144h36 l101 -144h-28l-91 120l-88 -120h-28z" />
<glyph unicode="&#xeb;" horiz-adv-x="571" d="M60 242q0 106 65 179.5t162 73.5q106 0 165 -73t59 -180v-10h-417q2 -92 57.5 -154.5t145.5 -62.5q100 0 168 73l18 -19q-78 -81 -186 -81q-105 0 -171 71.5t-66 182.5zM94 259h385q0 49 -20 95.5t-65.5 80t-107.5 33.5q-87 0 -138 -64.5t-54 -144.5zM159 598 q0 11 8.5 19.5t19.5 8.5t19.5 -8.5t8.5 -19.5t-8.5 -19.5t-19.5 -8.5t-19.5 8.5t-8.5 19.5zM361 598q0 11 8.5 19.5t19.5 8.5t19.5 -8.5t8.5 -19.5t-8.5 -19.5t-19.5 -8.5t-19.5 8.5t-8.5 19.5z" />
<glyph unicode="&#xec;" horiz-adv-x="202" d="M-53 700h45l160 -144h-30zM86 0v483h30v-483h-30z" />
<glyph unicode="&#xed;" horiz-adv-x="202" d="M50 556l160 144h45l-175 -144h-30zM86 0v483h30v-483h-30z" />
<glyph unicode="&#xee;" horiz-adv-x="202" d="M-16 556l98 144h36l101 -144h-28l-91 120l-88 -120h-28zM86 0v483h30v-483h-30z" />
<glyph unicode="&#xef;" horiz-adv-x="202" d="M-28 598q0 11 8.5 19.5t19.5 8.5t19.5 -8.5t8.5 -19.5t-8.5 -19.5t-19.5 -8.5t-19.5 8.5t-8.5 19.5zM86 0v483h30v-483h-30zM174 598q0 11 8.5 19.5t19.5 8.5t19.5 -8.5t8.5 -19.5t-8.5 -19.5t-19.5 -8.5t-19.5 8.5t-8.5 19.5z" />
<glyph unicode="&#xf0;" horiz-adv-x="570" d="M60 242q0 108 62.5 180.5t162.5 72.5q95 0 156 -85q-63 99 -162 174l-141 -62l-11 26l126 56q-41 28 -87 57l18 27q66 -41 103 -69l111 49l11 -26l-97 -43q198 -163 198 -357q0 -109 -62 -181.5t-163 -72.5q-100 0 -162.5 72.5t-62.5 181.5zM93 242q0 -94 52 -160.5 t140 -66.5q89 0 140.5 66.5t51.5 160.5q0 93 -51.5 159.5t-140.5 66.5q-88 0 -140 -66.5t-52 -159.5z" />
<glyph unicode="&#xf1;" horiz-adv-x="528" d="M86 0v483h30v-76q29 35 78 61.5t97 26.5q75 0 113 -37.5t38 -120.5v-337h-30v337q0 72 -32 101.5t-93 29.5q-48 0 -96 -26.5t-75 -64.5v-377h-30zM114 560q0 57 23.5 95.5t64.5 38.5q26 0 44.5 -17.5t27 -39t23 -39t33.5 -17.5q26 0 42.5 26.5t16.5 80.5h26 q0 -57 -23.5 -95.5t-64.5 -38.5q-26 0 -44.5 17.5t-27 39t-23 39t-33.5 17.5q-26 0 -42.5 -26.5t-16.5 -80.5h-26z" />
<glyph unicode="&#xf2;" horiz-adv-x="570" d="M60 242q0 108 62.5 180.5t162.5 72.5q101 0 163 -72t62 -181t-62 -181.5t-163 -72.5q-100 0 -162.5 72.5t-62.5 181.5zM93 242q0 -94 52 -160.5t140 -66.5q89 0 140.5 66.5t51.5 160.5q0 93 -51.5 159.5t-140.5 66.5q-88 0 -140 -66.5t-52 -159.5zM131 700h45l160 -144 h-30z" />
<glyph unicode="&#xf3;" horiz-adv-x="570" d="M60 242q0 108 62.5 180.5t162.5 72.5q101 0 163 -72t62 -181t-62 -181.5t-163 -72.5q-100 0 -162.5 72.5t-62.5 181.5zM93 242q0 -94 52 -160.5t140 -66.5q89 0 140.5 66.5t51.5 160.5q0 93 -51.5 159.5t-140.5 66.5q-88 0 -140 -66.5t-52 -159.5zM234 556l160 144h45 l-175 -144h-30z" />
<glyph unicode="&#xf4;" horiz-adv-x="570" d="M60 242q0 108 62.5 180.5t162.5 72.5q101 0 163 -72t62 -181t-62 -181.5t-163 -72.5q-100 0 -162.5 72.5t-62.5 181.5zM93 242q0 -94 52 -160.5t140 -66.5q89 0 140.5 66.5t51.5 160.5q0 93 -51.5 159.5t-140.5 66.5q-88 0 -140 -66.5t-52 -159.5zM169 556l98 144h36 l101 -144h-28l-91 120l-88 -120h-28z" />
<glyph unicode="&#xf5;" horiz-adv-x="570" d="M60 242q0 108 62.5 180.5t162.5 72.5q101 0 163 -72t62 -181t-62 -181.5t-163 -72.5q-100 0 -162.5 72.5t-62.5 181.5zM93 242q0 -94 52 -160.5t140 -66.5q89 0 140.5 66.5t51.5 160.5q0 93 -51.5 159.5t-140.5 66.5q-88 0 -140 -66.5t-52 -159.5zM135 560 q0 57 23.5 95.5t64.5 38.5q26 0 44.5 -17.5t27 -39t23 -39t33.5 -17.5q26 0 42.5 26.5t16.5 80.5h26q0 -57 -23.5 -95.5t-64.5 -38.5q-26 0 -44.5 17.5t-27 39t-23 39t-33.5 17.5q-26 0 -42.5 -26.5t-16.5 -80.5h-26z" />
<glyph unicode="&#xf6;" horiz-adv-x="570" d="M60 242q0 108 62.5 180.5t162.5 72.5q101 0 163 -72t62 -181t-62 -181.5t-163 -72.5q-100 0 -162.5 72.5t-62.5 181.5zM93 242q0 -94 52 -160.5t140 -66.5q89 0 140.5 66.5t51.5 160.5q0 93 -51.5 159.5t-140.5 66.5q-88 0 -140 -66.5t-52 -159.5zM156 598q0 11 8.5 19.5 t19.5 8.5t19.5 -8.5t8.5 -19.5t-8.5 -19.5t-19.5 -8.5t-19.5 8.5t-8.5 19.5zM358 598q0 11 8.5 19.5t19.5 8.5t19.5 -8.5t8.5 -19.5t-8.5 -19.5t-19.5 -8.5t-19.5 8.5t-8.5 19.5z" />
<glyph unicode="&#xf7;" horiz-adv-x="511" d="M29 322v30h453v-30h-453zM223 133q0 13 9.5 23t23.5 10t23.5 -10t9.5 -23t-9.5 -23t-23.5 -10t-23.5 10t-9.5 23zM223 536q0 13 9.5 22.5t23.5 9.5t23.5 -9.5t9.5 -22.5q0 -14 -10 -24t-23 -10t-23 10t-10 24z" />
<glyph unicode="&#xf8;" horiz-adv-x="570" d="M60 242q0 108 62.5 180.5t162.5 72.5q76 0 133 -44l24 32h33l-37 -50q72 -72 72 -191q0 -109 -62 -181.5t-163 -72.5q-81 0 -139 49l-28 -37h-34l42 56q-66 72 -66 186zM93 242q0 -96 52 -160l255 345q-49 41 -115 41q-88 0 -140 -66.5t-52 -159.5zM163 61 q49 -46 122 -46q89 0 140.5 66.5t51.5 160.5q0 101 -57 166z" />
<glyph unicode="&#xf9;" horiz-adv-x="528" d="M86 144v339h30v-339q0 -72 32 -100.5t93 -28.5q48 0 96.5 25.5t74.5 62.5v380h30v-483h-30v74q-33 -37 -80 -61.5t-95 -24.5q-75 0 -113 36.5t-38 119.5zM110 700h45l160 -144h-30z" />
<glyph unicode="&#xfa;" horiz-adv-x="528" d="M86 144v339h30v-339q0 -72 32 -100.5t93 -28.5q48 0 96.5 25.5t74.5 62.5v380h30v-483h-30v74q-33 -37 -80 -61.5t-95 -24.5q-75 0 -113 36.5t-38 119.5zM213 556l160 144h45l-175 -144h-30z" />
<glyph unicode="&#xfb;" horiz-adv-x="528" d="M86 144v339h30v-339q0 -72 32 -100.5t93 -28.5q48 0 96.5 25.5t74.5 62.5v380h30v-483h-30v74q-33 -37 -80 -61.5t-95 -24.5q-75 0 -113 36.5t-38 119.5zM146 556l98 144h36l101 -144h-28l-91 120l-88 -120h-28z" />
<glyph unicode="&#xfc;" horiz-adv-x="528" d="M86 144v339h30v-339q0 -72 32 -100.5t93 -28.5q48 0 96.5 25.5t74.5 62.5v380h30v-483h-30v74q-33 -37 -80 -61.5t-95 -24.5q-75 0 -113 36.5t-38 119.5zM139 598q0 11 8.5 19.5t19.5 8.5t19.5 -8.5t8.5 -19.5t-8.5 -19.5t-19.5 -8.5t-19.5 8.5t-8.5 19.5zM341 598 q0 11 8.5 19.5t19.5 8.5t19.5 -8.5t8.5 -19.5t-8.5 -19.5t-19.5 -8.5t-19.5 8.5t-8.5 19.5z" />
<glyph unicode="&#xfd;" horiz-adv-x="471" d="M11 483h35l190 -448l189 448h35l-256 -597q-36 -82 -106 -82q-27 0 -48 7l6 28q18 -8 42 -8q25 0 42.5 14.5t33.5 51.5l44 100zM185 556l160 144h45l-175 -144h-30z" />
<glyph unicode="&#xfe;" horiz-adv-x="562" d="M86 -184v851h30v-265q26 40 73 66.5t101 26.5q98 0 157 -69t59 -184q0 -114 -59.5 -184t-156.5 -70q-53 0 -98.5 25.5t-75.5 69.5v-267h-30zM116 113q24 -40 72 -69t102 -29q86 0 134.5 64t48.5 163t-48.5 162.5t-134.5 63.5q-54 0 -102 -28t-72 -68v-259z" />
<glyph unicode="&#xff;" horiz-adv-x="471" d="M11 483h35l190 -448l189 448h35l-256 -597q-36 -82 -106 -82q-27 0 -48 7l6 28q18 -8 42 -8q25 0 42.5 14.5t33.5 51.5l44 100zM107 598q0 11 8.5 19.5t19.5 8.5t19.5 -8.5t8.5 -19.5t-8.5 -19.5t-19.5 -8.5t-19.5 8.5t-8.5 19.5zM309 598q0 11 8.5 19.5t19.5 8.5 t19.5 -8.5t8.5 -19.5t-8.5 -19.5t-19.5 -8.5t-19.5 8.5t-8.5 19.5z" />
<glyph unicode="&#x152;" horiz-adv-x="1124" d="M65 333q0 148 87 246t230 98q86 0 158 -43.5t111 -123.5v157h408v-30h-376v-279h369v-30h-369v-298h376v-30h-408v157q-39 -81 -111 -125t-158 -44q-143 0 -230 98.5t-87 246.5zM100 333q0 -139 77 -227t205 -88q93 0 164 51t105 149v231q-34 98 -104.5 148t-164.5 50 q-128 0 -205 -87.5t-77 -226.5z" />
<glyph unicode="&#x153;" horiz-adv-x="988" d="M60 242q0 108 62.5 180.5t162.5 72.5q48 0 88 -17t64 -44.5t37.5 -53t19.5 -49.5q7 25 22 51t39.5 52.5t63.5 43.5t85 17q106 0 165 -73t59 -180v-10h-417q2 -92 57.5 -154.5t145.5 -62.5q100 0 168 73l18 -19q-78 -81 -186 -81q-50 0 -90.5 16.5t-66 42.5t-41 52.5 t-22.5 52.5q-8 -26 -21.5 -51t-37.5 -52t-63 -44t-87 -17q-100 0 -162.5 72.5t-62.5 181.5zM93 242q0 -94 52 -161t140 -67q89 0 140.5 67t51.5 161q0 93 -51.5 159.5t-140.5 66.5q-88 0 -140 -66.5t-52 -159.5zM511 259h385q0 49 -20 95.5t-65.5 80t-107.5 33.5 q-87 0 -138 -64.5t-54 -144.5z" />
<glyph unicode="&#x178;" horiz-adv-x="610" d="M21 667h41l243 -346l243 346h41l-268 -378v-289h-32v289zM180 765q0 11 8.5 19.5t19.5 8.5t19.5 -8.5t8.5 -19.5t-8.5 -19.5t-19.5 -8.5t-19.5 8.5t-8.5 19.5zM382 765q0 11 8.5 19.5t19.5 8.5t19.5 -8.5t8.5 -19.5t-8.5 -19.5t-19.5 -8.5t-19.5 8.5t-8.5 19.5z" />
<glyph unicode="&#x2c6;" horiz-adv-x="235" d="M0 556l98 144h36l101 -144h-28l-91 120l-88 -120h-28z" />
<glyph unicode="&#x2dc;" horiz-adv-x="301" d="M0 560q0 57 23.5 95.5t64.5 38.5q26 0 44.5 -17.5t27 -39t23 -39t33.5 -17.5q26 0 42.5 26.5t16.5 80.5h26q0 -57 -23.5 -95.5t-64.5 -38.5q-26 0 -44.5 17.5t-27 39t-23 39t-33.5 17.5q-26 0 -42.5 -26.5t-16.5 -80.5h-26z" />
<glyph unicode="&#x2000;" horiz-adv-x="439" />
<glyph unicode="&#x2001;" horiz-adv-x="878" />
<glyph unicode="&#x2002;" horiz-adv-x="439" />
<glyph unicode="&#x2003;" horiz-adv-x="878" />
<glyph unicode="&#x2004;" horiz-adv-x="292" />
<glyph unicode="&#x2005;" horiz-adv-x="219" />
<glyph unicode="&#x2006;" horiz-adv-x="146" />
<glyph unicode="&#x2007;" horiz-adv-x="146" />
<glyph unicode="&#x2008;" horiz-adv-x="109" />
<glyph unicode="&#x2009;" horiz-adv-x="175" />
<glyph unicode="&#x200a;" horiz-adv-x="48" />
<glyph unicode="&#x2010;" horiz-adv-x="300" d="M30 227v30h240v-30h-240z" />
<glyph unicode="&#x2011;" horiz-adv-x="300" d="M30 227v30h240v-30h-240z" />
<glyph unicode="&#x2012;" horiz-adv-x="300" d="M30 227v30h240v-30h-240z" />
<glyph unicode="&#x2013;" horiz-adv-x="593" d="M30 227v30h533v-30h-533z" />
<glyph unicode="&#x2014;" horiz-adv-x="833" d="M30 227v30h773v-30h-773z" />
<glyph unicode="&#x2018;" d="M55 556q0 36 18 69.5t44 51.5l22 -18q-24 -18 -38.5 -43.5t-14.5 -48.5q6 1 8 1q14 0 23 -9.5t9 -23.5q0 -13 -9 -22.5t-23 -9.5q-16 0 -27.5 14t-11.5 39z" />
<glyph unicode="&#x2019;" d="M58 521q24 18 38.5 43.5t14.5 48.5q-6 -1 -8 -1q-14 0 -23 9.5t-9 23.5q0 13 9 22.5t23 9.5q16 0 27.5 -14t11.5 -39q0 -36 -18 -69.5t-44 -51.5z" />
<glyph unicode="&#x201a;" d="M58 -100q24 18 38.5 43.5t14.5 48.5q-6 -1 -8 -1q-14 0 -23 9.5t-9 23.5q0 13 9 22.5t23 9.5q16 0 27.5 -14t11.5 -39q0 -36 -18 -69.5t-44 -51.5z" />
<glyph unicode="&#x201c;" horiz-adv-x="331" d="M66 556q0 36 18 69.5t44 51.5l22 -18q-24 -18 -38.5 -43.5t-14.5 -48.5q6 1 8 1q14 0 23 -9.5t9 -23.5q0 -13 -9 -22.5t-23 -9.5q-16 0 -27.5 14t-11.5 39zM189 556q0 36 18 69.5t44 51.5l22 -18q-24 -18 -38.5 -43.5t-14.5 -48.5q6 1 8 1q14 0 23 -9.5t9 -23.5 q0 -13 -9 -22.5t-23 -9.5q-16 0 -27.5 14t-11.5 39z" />
<glyph unicode="&#x201d;" horiz-adv-x="331" d="M58 521q24 18 38.5 43.5t14.5 48.5q-6 -1 -8 -1q-14 0 -23 9.5t-9 23.5q0 13 9 22.5t23 9.5q16 0 27.5 -14t11.5 -39q0 -36 -18 -69.5t-44 -51.5zM181 521q24 18 38.5 43.5t14.5 48.5q-6 -1 -8 -1q-14 0 -23 9.5t-9 23.5q0 13 9 22.5t23 9.5q16 0 27.5 -14t11.5 -39 q0 -36 -18 -69.5t-44 -51.5z" />
<glyph unicode="&#x201e;" horiz-adv-x="331" d="M58 -100q24 18 38.5 43.5t14.5 48.5q-6 -1 -8 -1q-14 0 -23 9.5t-9 23.5q0 13 9 22.5t23 9.5q16 0 27.5 -14t11.5 -39q0 -36 -18 -69.5t-44 -51.5zM181 -100q24 18 38.5 43.5t14.5 48.5q-6 -1 -8 -1q-14 0 -23 9.5t-9 23.5q0 13 9 22.5t23 9.5q16 0 27.5 -14t11.5 -39 q0 -36 -18 -69.5t-44 -51.5z" />
<glyph unicode="&#x2022;" horiz-adv-x="358" d="M82 242q0 40 29 69t69 29t69 -29t29 -69t-29 -68.5t-69 -28.5t-69 28.5t-29 68.5z" />
<glyph unicode="&#x2026;" horiz-adv-x="624" d="M71 24q0 13 10 22.5t23 9.5t23 -9.5t10 -22.5q0 -14 -9.5 -23.5t-23.5 -9.5t-23.5 9.5t-9.5 23.5zM279 24q0 13 10 22.5t23 9.5t23 -9.5t10 -22.5q0 -14 -9.5 -23.5t-23.5 -9.5t-23.5 9.5t-9.5 23.5zM487 24q0 13 10 22.5t23 9.5t23 -9.5t10 -22.5q0 -14 -9.5 -23.5 t-23.5 -9.5t-23.5 9.5t-9.5 23.5z" />
<glyph unicode="&#x202f;" horiz-adv-x="175" />
<glyph unicode="&#x2039;" horiz-adv-x="259" d="M30 243l160 177h39l-160 -177l160 -180h-39z" />
<glyph unicode="&#x203a;" horiz-adv-x="259" d="M30 63l160 180l-160 177h39l160 -177l-160 -180h-39z" />
<glyph unicode="&#x205f;" horiz-adv-x="219" />
<glyph unicode="&#x20ac;" horiz-adv-x="684" d="M39 247v30h50q-4 24 -4 56q0 20 4 58h-50v30h55q27 116 116.5 186.5t207.5 70.5q141 0 232 -105l-25 -22q-36 45 -90.5 71t-116.5 26q-105 0 -184 -62t-104 -165h348v-30h-354q-4 -25 -4 -58q0 -20 4 -56h354v-30h-348q25 -104 104 -166.5t184 -62.5q62 0 116.5 26 t90.5 71l26 -21q-94 -106 -233 -106q-119 0 -208.5 71t-115.5 188h-55z" />
<glyph unicode="&#x2122;" horiz-adv-x="454" d="M17 641v26h152v-26h-62v-194h-28v194h-62zM205 447v220h43l64 -160l64 160h43v-220h-28v182l-75 -182h-8l-75 182v-182h-28z" />
<glyph unicode="&#xe000;" horiz-adv-x="485" d="M0 0v485h485v-485h-485z" />
</font>
</defs>
</svg>
